#TITLE:Trauma;
#SUBTITLE:(Jamx & De leons DuMonde dub-vocal mix);
#ARTIST:浜崎あゆみ;
#TITLETRANSLIT:;
#SUBTITLETRANSLIT:;
#ARTISTTRANSLIT:Ayumi Hamasaki;
#CREDIT:;
#BANNER:trauma-Bn.png;
#BACKGROUND:trauma-Bg.png;
#LYRICSPATH:;
#CDTITLE:cdtitle.png;
#MUSIC:Ayumi Hamasaki - Ayu Trance 2 - 11 - Trauma (JamX and De Leons DuMonde dub-vocal mix).mp3;
#OFFSET:-10.000;
#SAMPLESTART:41.860;
#SAMPLELENGTH:12.000;
#SELECTABLE:YES;
#DISPLAYBPM:140.000;
#BPMS:0.000=140.003,73.750=138.003,93.750=140.023,220.750=138.003,296.250=135.003,331.750=140.023;
#STOPS:;
#BGCHANGES:;
// cache tags:
#FIRSTBEAT:1.750;
#LASTBEAT:464.000;
#SONGFILENAME:Songs/SS Ayu Style -Mini Pack-/trauma(JamX and De Leons DuMonde dub-vocal mix)/trauma.sm;
#HASMUSIC:1;
#HASBANNER:1;
#MUSICLENGTH:209.423;
// end cache tags

//---------------dance-single - ----------------
#NOTES:
     dance-single:
     :
     Hard:
     10:
     0.739,0.775,0.310,0.205,0.902,976.000,65.000,43.000,0.000,0.000:
0000
0000
0000
0000
0000
0000
0000
0001
0000
1000
0100
0000
1000
0010
1000
0100
,
0000
0010
0001
0000
0100
0001
0100
0001
0000
0100
0010
0000
1000
0100
1000
0100
,
1000
0100
1000
0100
1000
0100
1000
0001
0000
0100
0010
0000
1000
0100
1000
0001
,
0000
0010
0100
0000
1000
0001
1000
0010
0000
0100
0001
0000
1000
0100
0000
0010
,
0000
0001
1000
0000
1000
0010
1000
0100
0000
0010
0001
0000
0100
0010
1000
0100
,
0000
0010
0001
0000
0100
0010
0100
0010
0000
1000
0001
0000
1000
0100
0000
1000
,
0000
0001
0100
0000
0100
0010
1000
0100
0000
0010
0001
0000
1000
0100
1000
0001
,
0000
0100
0010
0000
1000
0100
1000
0001
0000
0010
0100
0000
1000
0010
1000
0001
,
0000
0100
0010
0000
1000
0100
1000
0001
0000
0000
1000
0010
0000
0000
0100
0001
,
0000
0000
1000
0100
0000
0000
0000
0011
0000
1100
0000
0000
1010
0000
0000
0010
,
0100
0010
0100
0010
0100
0010
0100
0001
0000
1000
0100
0000
0010
0001
0000
0110
,
0000
1000
0001
0000
1000
0010
1000
0100
0000
0010
0001
0000
0100
0010
0000
1000
,
0000
0001
0000
1000
0100
1000
0100
1000
0000
0001
0100
0000
0010
1000
0010
1000
,
0000
0100
0010
0000
0001
0010
0100
0010
0000
0001
1000
0000
1000
0010
0000
0100
,
0000
0100
0001
0000
0010
0100
1000
0001
0000
1000
0010
0000
0100
0001
1000
0100
,
0000
0010
0001
0000
1000
0100
1000
0001
0000
0100
0010
0000
1000
0001
0000
0010
,
0000
0100
1000
0000
1000
0001
0100
0010
0000
1000
0100
0000
0010
0001
0100
0010
,
0000
1000
0100
0000
1000
0010
1000
0010
0000
1000
0100
0000
1000
0001
0000
1000
,
0001
1000
0001
1000
0001
1000
0021
0000
0000
0000
0000
0000
0030
0010
0000
1000
,
0000
0000
0100
1000
0100
0000
0001
0000
0001
0000
0100
0000
0010
0000
1010
0000
,
0000
0000
0001
0010
0001
0000
0010
0000
0000
0000
1100
0000
0000
0000
0101
0000
,
0000
0000
0010
0000
1000
0000
0100
0000
0010
0001
0100
0000
0010
0000
1000
0000
,
0000
0000
0000
0000
0000
0000
1002
0000
0000
0003
0000
0000
0100
0000
0100
0000
,
0000
0000
0010
0000
1000
0000
0100
0000
0100
1000
0100
0000
1000
0000
0001
0000
,
0000
0000
0100
0001
0100
0000
0010
0000
0000
0000
1001
0000
0000
0000
1100
0000
,
0000
0000
0001
0000
0001
0000
0010
0000
0100
1000
0100
0000
1000
0000
0010
0000
,
0000
0000
0100
0001
0100
0001
0200
0000
0000
0000
0000
0000
0000
0000
0000
0300
,
0010
0000
1000
0000
0100
0000
0010
0000
0000
0011
0000
0000
1100
0000
0001
0000
,
0000
0000
1000
0001
1000
0001
2000
0000
0000
0000
0000
0000
0000
0000
3000
0000
,
0000
0000
0000
0000
0010
0000
1000
0000
0000
0100
0000
0000
0100
0000
0010
0000
,
0000
0001
0000
0000
1000
0000
0002
0000
0000
0000
0000
0000
0000
0000
0000
0000
,
0003
0000
0000
0000
0100
1000
0200
0000
0300
0000
0000
0010
1000
0100
0010
0001
,
1000
0000
0000
0100
0001
1000
0100
0010
0001
0100
1000
0100
0010
0001
0100
0010
,
1000
0100
0010
0001
0100
0000
1001
0000
1001
0000
0000
1100
0000
0000
0001
1000
,
0001
1000
0001
1000
0001
1000
0100
0000
1000
0001
0000
0100
0010
1000
0100
0000
,
0010
0001
0000
0100
0001
0100
0001
0000
0100
0001
0000
0100
0001
0100
0001
0000
,
0100
0010
0000
0100
0001
1000
0100
0000
0010
0001
0000
1000
0100
1000
0100
0000
,
1000
0010
0000
1000
0010
1000
0010
1000
0010
1000
0010
1000
0010
1000
0010
1000
,
0001
1000
0010
1000
0100
0010
0001
0000
1000
0100
0000
1000
0001
1000
0010
0000
,
0100
0001
0000
1000
0001
0000
1000
0000
0010
0100
0000
0100
0001
0000
1000
0000
,
0100
0010
0000
0010
0001
1000
0100
0000
1000
0001
0000
0100
0010
1000
0100
0000
,
0010
0001
0000
0100
0001
0100
0001
0000
0100
0001
0000
0100
0001
0100
0010
0100
,
0001
0100
0010
0100
0001
0100
0020
0000
0000
0000
0000
0000
1000
0000
1030
0000
,
0000
0000
0001
1000
0001
0000
1000
0000
0100
0000
0010
0000
0001
0000
0011
0000
,
0000
0000
0100
1000
0100
0000
1000
0000
0000
0000
1001
0000
0000
0000
1100
0000
,
0000
0000
0010
0000
0010
0000
1000
0000
0100
0010
0001
0000
0001
0000
0100
0000
,
0001
0000
0010
0000
0100
0000
2010
0000
0000
3000
0000
0000
0010
0000
1000
0000
,
0000
0000
0100
0000
0010
0000
0001
0000
0100
0001
0100
0000
0010
0000
1000
0000
,
0000
0000
0100
1000
0100
0000
1000
0000
0000
0000
1001
0000
0000
0100
1000
0000
,
0000
0000
0001
0000
0001
0000
0010
0000
0100
1000
0100
0000
1000
0000
0010
0000
,
0000
0000
0100
0001
0100
0001
0200
0000
0000
0000
0000
0000
0000
0000
0000
0000
,
0310
0000
1000
0000
0100
0000
0010
0000
0000
0011
0000
0000
1100
0000
0001
0000
,
0000
0000
0100
0001
0100
0001
0200
0000
0000
0000
0000
0000
0000
0000
0000
0000
,
0300
0000
0000
0000
0010
0000
1000
0000
0000
0100
0000
0000
0010
0000
0002
0000
,
0000
0100
0000
0003
0100
0000
0020
0000
0000
0000
0000
0000
0000
0000
0000
0030
,
0000
0000
0000
0000
1000
0001
0100
1000
0100
1000
0000
0001
1000
0000
0100
0001
,
0100
0001
0000
0010
0100
1000
0100
1000
0100
0000
0010
0001
0000
1000
0100
1000
,
0100
0000
1000
0010
0000
0100
0001
0100
0001
0000
1000
0010
0000
1000
0010
1000
,
0010
0000
0100
0000
0000
0000
0000
0001
0000
1000
0000
0100
0010
0000
0010
0001
,
0000
0000
0000
0010
0100
0020
0030
0000
0100
0010
0100
0020
0000
0000
0000
0030
,
0000
0000
0001
0000
0102
0000
0000
0100
0000
0003
0100
0000
0010
0000
0000
0010
,
0000
0000
1000
0000
0002
0000
0000
0000
0010
0003
0000
0010
0200
0000
0000
0000
,
0000
0000
0000
0000
0300
0000
1000
0001
1000
0000
0100
0010
0000
0010
0001
0000
,
0000
0000
0101
0000
0010
0000
1000
0100
0000
0100
0010
0000
0000
0000
0000
0000
,
0000
0010
1000
0002
0000
0000
0100
0000
0000
0103
0002
0000
0000
0000
0003
0001
,
0000
1000
0001
2000
0000
0000
0000
0000
0000
0000
0000
3100
0000
0010
0000
0001
,
0000
0100
0000
0010
1000
0010
1000
0010
0000
0100
0001
0000
0000
0010
0000
0110
,
0000
0001
0000
1000
0010
1000
0010
0100
0000
0001
0000
0010
0000
0100
1000
0000
,
0000
0000
0000
0001
1000
0001
1000
0100
0010
0002
0000
0000
0003
0000
0000
0000
,
1010
0000
0002
0000
0000
0000
0003
0100
0000
0100
0010
0000
0000
0000
0000
0000
,
0000
0000
0010
1000
0010
1000
0000
0000
0010
0100
0000
0000
0001
0000
0010
0000
,
0100
0000
1000
0100
1000
0000
0001
0000
0001
0000
0100
0000
0010
1000
0000
0000
,
0001
0010
0200
1000
1300
0001
0100
0010
,
0100
0010
0200
0000
0000
0000
0000
0000
0000
0000
0000
0000
0000
0000
0000
0000
,
0000
1000
0000
0300
1001
0000
1001
0000
0000
0000
1010
0000
2100
3000
0000
0000
,
1100
0000
1100
0000
1100
0000
1100
1100
,
1100
0000
0011
0011
0000
1010
1020
0000
,
0000
0000
0000
0000
0000
0030
0000
0000
0000
0000
0000
0000
1001
0000
1100
0000
,
0000
0101
0101
0000
1010
1010
0000
0011
,
0022
0000
0000
0000
0000
0033
0000
2020
,
0000
0000
0000
0000
0000
0030
3000
0000
0001
0000
0101
0000
1010
0000
1000
0000
,
0000
0100
0020
0000
0000
0000
0000
0000
,
0000
0000
0030
0000
,
0000
0000
0000
0000
0100
1000
0100
1000
0000
0001
0100
0000
0010
1000
0100
1000
,
0000
0001
0010
0000
0100
1000
0001
1000
0000
0010
0100
0000
0001
0010
0100
0010
,
0000
0001
1000
0000
0010
1000
0010
1000
0000
0100
0010
0000
0001
0100
0010
1000
,
0000
0000
0100
0000
0010
0001
0100
0010
0000
1000
0001
0000
1000
0100
1000
0001
,
0000
0100
0010
0000
1000
0010
1000
0010
0000
0100
0001
0000
0010
0001
0010
0100
,
0000
1000
0001
0000
1000
0010
1000
0010
0000
0100
0001
0000
0010
0100
0010
0100
,
0000
0010
0001
0000
1000
0001
1000
0001
0000
0000
0100
0000
0010
0100
0010
0100
,
0000
0000
0001
0000
1000
0100
1000
0100
0000
1000
0001
0000
1000
0010
1000
0010
,
0000
0100
0001
0000
0010
0100
0010
0001
0000
0000
0010
0000
0100
1000
0000
0010
,
1000
0000
0000
0001
0100
0000
0000
0100
1000
0000
0000
0000
0011
0000
0011
0000
,
0000
1100
0000
0000
1000
0001
1000
0001
1000
0010
0100
0001
0010
0000
0100
1000
,
0000
0000
1000
0000
0010
0000
0000
0000
0010
1000
0020
0000
1000
0000
1030
0000
,
0001
0000
0100
0000
0101
0000
0000
0000
0010
1000
0010
0000
0100
0000
0000
0000
,
0011
0000
0000
0000
2100
0000
0000
0000
0001
3000
0001
0000
0100
0000
0010
0100
,
0010
0000
2000
0000
0001
3000
0000
0000
0010
0000
0000
0000
0011
0000
0000
0000
,
0100
0000
1000
0000
0002
0000
0000
0000
0100
0003
0100
0000
0010
0000
1000
0010
,
1000
0010
0100
0000
0011
0100
1000
0000
,
1001
0000
0000
0000
2100
0000
0000
0000
0010
0000
3010
0000
0100
0000
0001
0010
,
0001
0000
0010
0000
0200
0000
0000
0000
1300
0001
1000
0001
2000
0000
0000
0000
,
0000
0000
0000
3000
0000
0000
0010
0000
1000
0000
0001
0000
0011
0000
0000
1100
,
0000
0000
0001
0000
0002
0000
0000
0003
0100
0001
0100
0001
0200
0000
0000
0000
,
0000
0000
0000
0000
0000
0000
0000
0300
0000
0000
0010
0000
1000
0000
0000
1010
,
0000
0000
0002
0000
0010
0000
0000
0003
0010
0000
0100
0000
1000
0000
0100
0000
,
1000
0000
0001
0100
0001
0000
1000
0010
1000
0000
0001
0010
0001
0000
1000
0100
,
1000
0000
0001
0100
0001
0000
1000
0010
1000
0000
0000
0000
0001
0010
0000
0001
,
0010
0000
0000
0000
0100
0000
1000
0100
1000
0000
0001
0100
0001
0000
1000
0010
,
1000
0000
0001
0010
0001
0000
1000
0100
1000
0000
0010
1000
0010
0000
0100
0001
,
0100
0000
0100
1000
0100
0000
0010
0001
0010
0000
0010
1000
0010
0000
0100
0001
,
0100
0000
0001
1000
0001
0000
1000
0100
1000
0000
0000
0000
0001
0010
0000
0010
,
0001
0000
0000
0000
0100
0000
1000
0100
1000
0000
0001
0100
0001
0000
1000
0010
,
1000
0000
0001
0010
0001
0000
1000
0100
1000
0000
0001
0100
0001
0000
1000
0010
,
1000
0000
0001
0010
0001
0000
1000
0100
1000
0000
0001
0100
0001
0000
1000
0010
,
1000
0000
0010
0001
0020
0000
0000
0030
0200
0000
0000
0000
0000
0000
0000
0000
,
0300
0000
0000
0000
;
